logo

Tirangaa (1992) 480p WEBHD - DTOne

  • Category Movies
  • Type Bollywood
  • Language Hindi
  • Total size 6.9 GB
  • Uploaded By SaM
  • Downloads 81
  • Last checked 3 days ago
  • Date uploaded 1 week ago
  • Seeders 1
  • Leechers 4

Infohash : 1ABA2831E3AAAE94A7960E5546DBA7DAB52E2C5A

Download Tirangaa (1992) 480p WEBHD - DTOne Torrent

Tirangaa (1992) 480p WEBHD - DTOne

Download Tirangaa (1992) 480p WEBHD - DTOne Torrent

Deputy Commissioner of Police Rudrapratap Chouhan is a honest and diligent family who lives with his wife. and son, Harish. Since he is on the hit-list of many gangster he never travels alone without a weapon. But when gangster, Pralaynath Gendaswamy finds out that Rudrapratap goes for a horse-rides with his son without any weapons, that's when they plan to kill him - and they succeed. But Harish has witnessed this killing and he would like to avenge his father's death, but he has no clues where and whom to start looking for. Then after a new year's party, the police come and knock on the door of the Chouhan's household, and arrest Harish for raping and beating a woman named Radha Tandel, who is the daughter of Jeevanlal, Central Minister in the Government, who is also the girlfriend of Arjun, the only son of Gendaswamy. The police have all the evidence to convict Harish, including the testimony of Dr. Gupta, who is the father of Harish's gorgeous girlfriend, Sandhya.and the only ones who can save him are Inspector Shivajirao Wagle, and Brigadier Suryadev Singh - but they have more important business to attend to - like saving the country from being attacked by bombs, and the mysterious abduction of top scientists. It looks like the scales are heavily weighed against Harish - and only a miracle can save him from a lengthy prison sentence.


Download Tirangaa (1992) 480p WEBHD - DTOne Torrent

Code:


General
Complete name : Tirangaa (1992) 480p WEBHD - DTOne.mp4
Format : MPEG-4
Format profile : Base Media
Codec ID : isom (isom/iso2/avc1/mp41)
File size : 6.85 GiB
Duration : 2 h 39 min
Overall bit rate mode : Variable
Overall bit rate : 6 139 kb/s
Writing application : Lavf56.40.101

Video
ID : 1
Format : AVC
Format/Info : Advanced Video Codec
Format profile : [email protected]
Format settings : CABAC / 2 Ref Frames
Format settings, CABAC : Yes
Format settings, RefFrames : 2 frames
Codec ID : avc1
Codec ID/Info : Advanced Video Coding
Duration : 2 h 39 min
Bit rate : 6 000 kb/s
Width : 720 pixels
Height : 416 pixels
Display aspect ratio : 1.731
Frame rate mode : Variable
Frame rate : 25.000 FPS
Minimum frame rate : 25.000 FPS
Maximum frame rate : 90 000.000 FPS
Color space : YUV
Chroma subsampling : 4:2:0
Bit depth : 8 bits
Scan type : Progressive
Bits/(Pixel*Frame) : 0.801
Stream size : 6.70 GiB (98%)
Writing library : x264 core 138

Audio
ID : 2
Format : AAC
Format/Info : Advanced Audio Codec
Format profile : LC
Codec ID : mp4a-40-2
Duration : 2 h 39 min
Bit rate mode : Variable
Bit rate : 128 kb/s
Maximum bit rate : 131 kb/s
Channel(s) : 2 channels
Channel positions : Front: L R
Sampling rate : 48.0 kHz
Frame rate : 46.875 FPS (1024 SPF)
Compression mode : Lossy
Stream size : 146 MiB (2%)
Default : Yes
Alternate group : 1




Download Tirangaa (1992) 480p WEBHD - DTOne Torrent
Download Tirangaa (1992) 480p WEBHD - DTOne Torrent
Download Tirangaa (1992) 480p WEBHD - DTOne Torrent
Download Tirangaa (1992) 480p WEBHD - DTOne Torrent
Download Tirangaa (1992) 480p WEBHD - DTOne Torrent
Download Tirangaa (1992) 480p WEBHD - DTOne Torrent
Download Tirangaa (1992) 480p WEBHD - DTOne Torrent
(Images are resized to save bandwidth, click on it to view it in full size)



Quote:

Note:


-480p WEBHD Untouched!

-Enjoy DTOne Exclusive Release!





If you share this torrent anywhere, give credits to DTOne


Files:

Tirangaa (1992) 480p WEBHD - DTOne
  • Tirangaa (1992) 480p WEBHD - DTOne.mp4 (6.9 GB)
  • A DTOne Release !!.txt (0.2 KB)
  • Torrent downloaded from ettv.tv.txt (0.0 KB)
  • Torrent downloaded from desitorrents.com.txt (0.0 KB)

There are currently no comments. Feel free to leave one :)

Code:

  • udp://tracker.leechers-paradise.org:6969/announce
  • udp://tracker.leechers-paradise.org:6969
  • udp://shadowshq.yi.org:6969/announce
  • udp://tracker.zer0day.to:1337/announce
  • udp://eddie4.nl:6969
  • udp://tracker.pirateparty.gr:6969/announce
  • udp://p4p.arenabg.com:1337/announce
  • udp://p4p.arenabg.ch:1337/announce
  • udp://shadowshq.yi.org:6969
  • udp://explodie.org:6969/announce
  • udp://tracker.opentrackr.org:1337/announce